الاستماع للقران الكريم          مركز رفع الصور         صفحتنا علي الفيس بوك

           

تنبية مهم لكل عضو قبل طرح المواضيع :: لتفادي إيقاف العضوية وحذف جميع المواضيع نأمل من كل عضو طرح مواضيعه في القسم المخصص لها وإلا سوف يتم حذف جميع مواضيعه وحظر عضويته فـوراً ..


آخر 10 مشاركات WinX DVD Ripper Platinum 8.20.3.244 Multilingual Portable (الكاتـب : Trust_Uploader - )           »          WinToUSB 5.5 Enterprise Release 1 (x64) Multilingual... (الكاتـب : Trust_Uploader - )           »          VueScan Pro 9.7.29 Multilingual Portable (الكاتـب : Trust_Uploader - )           »          Video Repair Tool v4.0.0.0 Portable (الكاتـب : Trust_Uploader - )           »          Ultimate EPubsoft DRM Removal 15.9.2 Portable (الكاتـب : Trust_Uploader - )           »          UFS Explorer Professional Recovery 8.2.0.5670 Multilingual... (الكاتـب : Trust_Uploader - )           »          Topaz Gigapixel AI v5.0.1 (x64) Portable (الكاتـب : Trust_Uploader - )           »          Remo Video Repair 1.0.0.14 + Portable (الكاتـب : Trust_Uploader - )           »          Photo BlowUp 1.0.6868.36646 Portable (الكاتـب : Trust_Uploader - )           »          Passper for ZIP 3.6.0.1 Multilingual Portable (الكاتـب : Trust_Uploader - )

إضافة رد
 
أدوات الموضوع انواع عرض الموضوع
  #1  
قديم 2016-02-24, 06:34 PM
الصورة الرمزية nemr23
nemr23 nemr23 غير متواجد حالياً
 
تاريخ التسجيل: Feb 2016
المشاركات: 64
nemr23 is on a distinguished road
افتراضي Bajrangi Bhaijaan.2015 تحميل ومشاهدة اكشن كوميدى سلمان خان






فيلم الأكشن الكوميدى

Bajrangi Bhaijaan.2015


بطولة
سلمان خان
كارينا كابور

نسخة مسجلة من mbc بوليوود بمساحة 2.21








General
Bajrangi Bhaijaan.2015.by.nemr23.mpg
Format : MPEG-PS
File size : 2.21 GiB
Duration : 2h 31mn
Overall bit rate mode : Variable
Overall bit rate : 2 095 Kbps

Video
ID : 224 (0xE0)
Format : MPEG Video
Format version : Version 2
Format profile : Main@Main
Format settings, BVOP : Yes
Format settings, Matrix : Custom
Format settings, GOP : Variable
Format settings, picture st : Frame
Duration : 2h 31mn
Bit rate mode : Variable
Bit rate : 1 926 Kbps
Maximum bit rate : 15.0 Mbps
Width : 720 pixels
Height : 576 pixels
Display aspect ratio : 16:9
Frame rate : 25.000 fps
Standard : PAL
Color space : YUV
Chroma subsampling : 40
Bit depth : 8 bits
Scan type : Interlaced
Scan order : Top Field First
Compression mode : Lossy
Bits/(Pixel*Frame) : 0.186
Time code of first frame : 00:00:00:00
Time code source : Group of pictures header
GOP, Open/Closed : Open
GOP, Open/Closed of first f : Closed
Stream size : 2.03 GiB (92%)

Audio
ID : 192 (0xC0)
Format : MPEG Audio
Format version : Version 1
Format profile : Layer 2
Duration : 2h 31mn
Bit rate mode : Constant
Bit rate : 128 Kbps
Channel(s) : 2 channels
Sampling rate : 48.0 KHz
Compression mode : Lossy
Delay relative to video : 22ms
Stream size : 138 MiB (6%)














http://sh.st/mJe1d
http://sh.st/mJe1k
http://sh.st/mJe1v

او
http://sh.st/mJuwo

رابط المشاهدة والتورنت
http://sh.st/mJyQW

رد مع اقتباس
  #2  
قديم 2016-02-24, 09:08 PM
الصورة الرمزية MR D I A A
MR D I A A MR D I A A غير متواجد حالياً
 
تاريخ التسجيل: Dec 2014
المشاركات: 312
MR D I A A تم تعطيل التقييم
افتراضي

اهلا وسهلا أستاذ محمد
أسطورة المنتديات الفنية
حقيقة نورتنا وشرفنا انضمامك معنا في المنتدي
وتسلم ايدك علي المواضيع المميزة
وأتمني للجميع مشاهدة ممتعة
تحياتي لك

__________________



رد مع اقتباس
  #3  
قديم 2016-04-10, 06:08 AM
الصورة الرمزية KHALED_RAMADAN
KHALED_RAMADAN KHALED_RAMADAN غير متواجد حالياً
 
تاريخ التسجيل: Mar 2016
المشاركات: 1,044
KHALED_RAMADAN is on a distinguished road
إرسال رسالة عبر MSN إلى KHALED_RAMADAN إرسال رسالة عبر Yahoo إلى KHALED_RAMADAN
افتراضي

الف شكر لك على مجهودك الطيب
تقبل تحياتى

__________________
350تيرا للتبادل والبيع اكبر مكتبة افلام ومسلسلات فى الشرق
مسلسلات رمضان 2019 جودة اتش دى
اخر تحديث اللستة من هنا بتاريخ 15 - 06 - 2019
http://www.mediafire.com/file/fbb6pio6h688gij/15+-+06+-+2019+++اللستة++خالد+رمضان%283%29.rar
كن صادقا يحترمك الناس
يهمنا الاحترام ودقة المواعيد
الشحن لجميع دول العالم
Kh_nana15555@hotmail.com
Kh_nana1555@yahoo.com
https://www.facebook.com/profile.php?id=100029476775104
00201225575997
رد مع اقتباس
  #4  
قديم 2016-06-16, 02:24 PM
soosf soosf غير متواجد حالياً
عضو سوبر
 
تاريخ التسجيل: Apr 2016
المشاركات: 811
soosf is on a distinguished road
افتراضي رد: Bajrangi Bhaijaan.2015 تحميل ومشاهدة اكشن كوميدى سلمان خان

شكررا

رد مع اقتباس
  #5  
قديم 2016-06-20, 02:54 PM
moootez moootez غير متواجد حالياً
عضو سوبر
 
تاريخ التسجيل: Apr 2016
المشاركات: 853
moootez is on a distinguished road
افتراضي رد: Bajrangi Bhaijaan.2015 تحميل ومشاهدة اكشن كوميدى سلمان خان

فيلم ممتاز و مليئ بالمواقف المضحكة و الطريفة مشكور أخي على المجهودات الطيبة تسلم الأيادي

رد مع اقتباس
  #6  
قديم 2016-08-30, 10:08 PM
الصورة الرمزية shimaa taha
shimaa taha shimaa taha غير متواجد حالياً
 
تاريخ التسجيل: Aug 2016
المشاركات: 1,041
shimaa taha is on a distinguished road
افتراضي رد: Bajrangi Bhaijaan.2015 تحميل ومشاهدة اكشن كوميدى سلمان خان

تحياتي لك على مشاركتك الجميله

رد مع اقتباس
  #7  
قديم 2017-03-20, 10:10 AM
maha maha غير متواجد حالياً
عضو برونزي
 
تاريخ التسجيل: Jan 2017
المشاركات: 6,128
maha is on a distinguished road
افتراضي رد: Bajrangi Bhaijaan.2015 تحميل ومشاهدة اكشن كوميدى سلمان خان

شكرا لك لاختيارك ومجهوداتك

رد مع اقتباس
إضافة رد

أدوات الموضوع
انواع عرض الموضوع

تعليمات المشاركة
لا تستطيع إضافة مواضيع جديدة
لا تستطيع الرد على المواضيع
لا تستطيع إرفاق ملفات
لا تستطيع تعديل مشاركاتك

BB code is متاحة
كود [IMG] متاحة
كود HTML معطلة

الانتقال السريع

المواضيع المتشابهه
الموضوع كاتب الموضوع المنتدى مشاركات آخر مشاركة
Dilwale 2015 مترجم FHD 1080p شاروخ خان وكاجول تحميل ومشاهدة nemr23 ملتقى عشاق السينما الهندية (بوليود ) 15 2017-03-23 06:14 PM
Hotel.Transylvania.II.2015.مدبلج 1080p.BRrip تحميل ومشاهدة nemr23 منتدي أفلام الأنمي والكارتون 7 2017-03-23 10:48 AM
حصريا تحميل ومشاهدة By the Sea 2015 HC HDRip كامل ومترجم MakMak قسم الافلام الاجنبية 4 2017-03-20 10:41 PM
Immaan Dharam (1977 مترجم اكشن لاميتاب وشاشى كابور تحميل ومشاهدة وتورنت nemr23 ملتقى عشاق السينما الهندية (بوليود ) 7 2016-09-02 04:51 AM

|

اعلانك يراه الكثير ... بأرخص الأسعار

Powered by vBulletin® Copyright ©2000 - 2020, Jelsoft Enterprises Ltd. TranZ By Almuhajir