الاستماع للقران الكريم          مركز رفع الصور         صفحتنا علي الفيس بوك

           

تنبية مهم لكل عضو قبل طرح المواضيع :: لتفادي إيقاف العضوية وحذف جميع المواضيع نأمل من كل عضو طرح مواضيعه في القسم المخصص لها وإلا سوف يتم حذف جميع مواضيعه وحظر عضويته فـوراً ..


آخر 10 مشاركات آوتار العتب كلمات معيض ال عمر (الكاتـب : فهمي سامر - )           »          آوتار العتب كلمات معيض ال عمر (الكاتـب : فهمي سامر - )           »          الحياة دوت كوم (الكاتـب : فهمي سامر - )           »          مستعمل نت (الكاتـب : ضياء ألروح - )           »          سائق عربي في انطاليا تركيا (الكاتـب : زان تركيا - )           »          مثلث (الكاتـب : ضياء ألروح - )           »          اوجعتني كلمات علي بن حمري (الكاتـب : فهمي سامر - )           »          اوجعتني كلمات علي بن حمري (الكاتـب : فهمي سامر - )           »          أسهل طريقة لعمل الكوكيز (الكاتـب : فهمي سامر - )           »          أسهل طريقة لعمل الكوكيز (الكاتـب : فهمي سامر - )

إضافة رد
 
أدوات الموضوع انواع عرض الموضوع
  #1  
قديم 2019-02-26, 12:54 PM
oaxino oaxino غير متواجد حالياً
عضو ذهبي
 
تاريخ التسجيل: Sep 2017
المشاركات: 1,755
oaxino is on a distinguished road
افتراضي People Magazine Investigates S03E16



People Magazine Investigates S03E16
WEBRip | MKV | 720x404 | English | H264 @ 775 kbps | AAC @ 126 kbps | 42 min 52 s | 277 MiB
Subtitles: English

General
Unique ID : 149232589623320976494099200151895927491 (0x704526BBD1D53F326E1535A81463EAC3)
Complete name : ./40599c7eec2b4dbcb710e6b14230440e.mkv
Format : Matroska
Format version : Version 4 / Version 2
File size : 277 MiB
Duration : 42 min 52 s
Overall bit rate : 905 kb/s
Encoded date : UTC 2019-02-26 03:38:11
Writing application : mkvmerge v29.0.0 ('Like It Or Not') 64-bit
Writing library : libebml v1.3.6 + libmatroska v1.4.9

Video
ID : 1
Format : AVC
Format/Info : Advanced Video Codec
Format profile : High@L3.1
Format settings : CABAC / 5 Ref Frames
Format settings, CABAC : Yes
Format settings, RefFrames : 5 frames
Codec ID : V_MPEG4/ISO/AVC
Duration : 42 min 52 s
Bit rate : 776 kb/s
Width : 720 pixels
Height : 404 pixels
Display aspect ratio : 16:9
Frame rate mode : Constant
Frame rate : 23.976 (24000/1001) FPS
Color space : YUV
Chroma subsampling : 4:2:0
Bit depth : 8 bits
Scan type : Progressive
Bits/(Pixel*Frame) : 0.111
Stream size : 238 MiB (86%)
Writing library : x264 core 157 r2935 545de2f
Encoding settings : cabac=1 / ref=5 / deblock=1:-3:-3 / analyse=0x3:0x113 / me=hex / subme=8 / psy=1 / psy_rd=1.00:0.15 / mixed_ref=1 / me_range=16 / chroma_me=1 / trellis=2 / 8x8dct=1 / cqm=0 / deadzone=21,11 / fast_pskip=1 / chroma_qp_offset=-3 / threads=13 / lookahead_threads=2 / sliced_threads=0 / nr=0 / decimate=1 / interlaced=0 / bluray_compat=0 / constrained_intra=0 / bframes=3 / b_pyramid=2 / b_adapt=2 / b_bias=0 / direct=3 / weightb=1 / open_gop=0 / weightp=2 / keyint=250 / keyint_min=23 / scenecut=40 / intra_refresh=0 / rc_lookahead=50 / rc=crf / mbtree=1 / crf=19.0 / qcomp=0.60 / qpmin=0 / qpmax=69 / qpstep=4 / ip_ratio=1.40 / aq=1:1.00
Language : English
Default : Yes
Forced : No
Color range : Limited
Matrix coefficients : BT.709

Audio
ID : 2
Format : AAC
Format/Info : Advanced Audio Codec
Format profile : HE-AAC / LC
Format settings : Implicit
Codec ID : A_AAC-2
Duration : 42 min 52 s
Bit rate : 127 kb/s
Channel(s) : 2 channels
Channel positions : Front: L R
Sampling rate : 48.0 kHz / 24.0 kHz
Frame rate : 23.438 FPS (1024 SPF)
Compression mode : Lossy
Stream size : 38.9 MiB (14%)
Language : English
Default : Yes
Forced : No

Text
ID : 3
Format : UTF-8
Codec ID : S_TEXT/UTF8
Codec ID/Info : UTF-8 Plain Text
Duration : 42 min 51 s
Bit rate : 124 b/s
Count of elements : 833
Stream size : 39.2 KiB (0%)
Language : English
Default : No
Forced : No








Download link:
كود:
rapidgator_net: https://rapidgator.net/file/818a2182364565a1a2d4f1c804e16368/qucvl.People.Magazine.Investigates.S03E15.mkv.html nitroflare_com: http://nitroflare.com/view/63F034F9DFBECBA/qucvl.People.Magazine.Investigates.S03E15.mkv
Links are Interchangeable - No Password - Single Extraction

رد مع اقتباس
  #2  
قديم 2019-07-01, 11:34 AM
maha maha غير متواجد حالياً
عضو برونزي
 
تاريخ التسجيل: Jan 2017
المشاركات: 5,640
maha is on a distinguished road
افتراضي رد: People Magazine Investigates S03E16




شاكرة طرحك وبإنتظار جديدك

رد مع اقتباس
إضافة رد

أدوات الموضوع
انواع عرض الموضوع

تعليمات المشاركة
لا تستطيع إضافة مواضيع جديدة
لا تستطيع الرد على المواضيع
لا تستطيع إرفاق ملفات
لا تستطيع تعديل مشاركاتك

BB code is متاحة
كود [IMG] متاحة
كود HTML معطلة

الانتقال السريع

|

اعلانك يراه الكثير ... بأرخص الأسعار

Powered by vBulletin® Copyright ©2000 - 2019, Jelsoft Enterprises Ltd. TranZ By Almuhajir