الاستماع للقران الكريم          مركز رفع الصور         صفحتنا علي الفيس بوك

           

تنبية مهم لكل عضو قبل طرح المواضيع :: لتفادي إيقاف العضوية وحذف جميع المواضيع نأمل من كل عضو طرح مواضيعه في القسم المخصص لها وإلا سوف يتم حذف جميع مواضيعه وحظر عضويته فـوراً ..


آخر 10 مشاركات شركة اوائل المساكن السعودية ( التمويل العقاري ) (الكاتـب : ضياء - )           »          شركات مكافحة الحشرات فى دبى 0555851180 الوادى الملكى (الكاتـب : رزان للتسويق - )           »          صباغ رخيص فى عجمان 0543006367 لينك (الكاتـب : رزان للتسويق - )           »          خروج بريطانيا و المفاوضات التجارية يسبب تفاؤل في الأسواق (الكاتـب : سارة الحلوانى - )           »          نقل عفش (الكاتـب : ضياء ألروح - )           »          عفش الكويت (الكاتـب : ضياء ألروح - )           »          الفارس للخدمات العلاجيه (الكاتـب : ضياء ألروح - )           »          🔥🔥 شرح كيف تربح 200$ شهريا بدون استثمار 🔥🔥 (الكاتـب : Guru - )           »          موقع ثقة للتحقق من الشركات الصينية و فحص البضائع قبل الشحن (الكاتـب : رمش إلغلا - )           »          سناب الخبر (الكاتـب : بنت الرياااض - )

إضافة رد
 
أدوات الموضوع انواع عرض الموضوع
  #1  
قديم 2016-03-04, 05:23 PM
الصورة الرمزية nemr23
nemr23 nemr23 غير متواجد حالياً
 
تاريخ التسجيل: Feb 2016
المشاركات: 64
nemr23 is on a distinguished road
افتراضي باقة من افلام سلمان خان المتميزة مسجلة من mbc bollywood






باقة من أجمل أفلام
سلمان خان

نسخ مترجمة مسجلة من mbc بوليوود غير مضغوطة
بصيغة mpg بمساحة 15 جيجا


6 أفلام متميزة
Kck.2014
Jai Ho.2014
Ek Tha Tiger.2012
Dabangg 2.2012
Dabangg.2010
Hum Dil De Chuke Sanam.1990










General
باقة من افلام سلمان خان على.by.nemr23 mbc bollywood
Format : MPEG-PS
File size : 15.21 GiB
Duration :
Overall bit rate mode : Variable
Overall bit rate : 2 095 Kbps

Video
ID : 224 (0xE0)
Format : MPEG Video
Format version : Version 2
Format profile : Main@Main
Format settings, BVOP : Yes
Format settings, Matrix : Custom
Format settings, GOP : Variable
Format settings, picture st : Frame
Duration :
Bit rate mode : Variable
Bit rate : 1 926 Kbps
Maximum bit rate : 15.0 Mbps
Width : 720 pixels
Height : 576 pixels
Display aspect ratio : 16:9
Frame rate : 25.000 fps
Standard : PAL
Color space : YUV
Chroma subsampling : 40
Bit depth : 8 bits
Scan type : Interlaced
Scan order : Top Field First
Compression mode : Lossy
Bits/(Pixel*Frame) : 0.186
Time code of first frame : 00:00:00:00
Time code source : Group of pictures header
GOP, Open/Closed : Open
GOP, Open/Closed of first f : Closed
Stream size : 2.03 GiB (92%)

Audio
ID : 192 (0xC0)
Format : MPEG Audio
Format version : Version 1
Format profile : Layer 2
Duration : 2h 31mn
Bit rate mode : Constant
Bit rate : 128 Kbps
Channel(s) : 2 channels
Sampling rate : 48.0 KHz
Compression mode : Lossy
Delay relative to video : 22ms
Stream size : 138 MiB (6%)




































رابط المشاهدة
http://sh.st/QfwHO



Dabangg.2010
http://sh.st/QaJxM
او
http://sh.st/QaKqd
او
اجزاء
http://sh.st/QaZag
http://sh.st/QaZaz


رابط المشاهدة
http://sh.st/Qfruc


Dabangg 2.2012
http://sh.st/QaXXV
او
http://sh.st/Qa13l
او اجزاء
http://sh.st/QaMeH
http://sh.st/Qa1s8

رابط المشاهدة
http://sh.st/QfrLP


Ek Tha Tiger.2012
http://sh.st/Qa8ok
او
http://sh.st/Qa9EV

او اجزاء
http://sh.st/Qsrx8
http://sh.st/Qsrci

رابط المشاهدة
http://sh.st/QftgY


Jai Ho.2014
http://sh.st/Qsykk
او
http://sh.st/Qsulc

او اجزاء
http://sh.st/Qsijj
http://sh.st/Qsijc

رابط المشاهدة
http://sh.st/Qfya4



Kck.2014
http://sh.st/QsohB
او
http://sh.st/QsfQi

رابط المشاهدة
http://sh.st/QfyX7


رابط التورنت والف شكر arabp2p
http://sh.st/QsgCA







التعديل الأخير تم بواسطة nemr23 ; 2016-03-04 الساعة 05:28 PM
رد مع اقتباس
  #2  
قديم 2016-03-04, 05:49 PM
الصورة الرمزية العجواني
العجواني العجواني غير متواجد حالياً
 
تاريخ التسجيل: May 2015
المشاركات: 466
العجواني is on a distinguished road
افتراضي

دائما متميز استاذ محمد
تسلم ايدك والي الامام دائما

رد مع اقتباس
  #3  
قديم 2016-04-10, 06:10 AM
الصورة الرمزية KHALED_RAMADAN
KHALED_RAMADAN KHALED_RAMADAN غير متواجد حالياً
 
تاريخ التسجيل: Mar 2016
المشاركات: 1,046
KHALED_RAMADAN is on a distinguished road
إرسال رسالة عبر MSN إلى KHALED_RAMADAN إرسال رسالة عبر Yahoo إلى KHALED_RAMADAN
افتراضي

الف شكر لك على مجهودك الطيب
تقبل تحياتى

__________________
350تيرا للتبادل والبيع اكبر مكتبة افلام ومسلسلات فى الشرق
مسلسلات رمضان 2019 جودة اتش دى
اخر تحديث اللستة من هنا بتاريخ 15 - 06 - 2019
http://www.mediafire.com/file/fbb6pio6h688gij/15+-+06+-+2019+++اللستة++خالد+رمضان%283%29.rar
كن صادقا يحترمك الناس
يهمنا الاحترام ودقة المواعيد
الشحن لجميع دول العالم
Kh_nana15555@hotmail.com
Kh_nana1555@yahoo.com
https://www.facebook.com/profile.php?id=100029476775104
00201225575997
رد مع اقتباس
  #4  
قديم 2016-06-16, 02:20 PM
soosf soosf غير متواجد حالياً
عضو سوبر
 
تاريخ التسجيل: Apr 2016
المشاركات: 811
soosf is on a distinguished road
افتراضي رد: باقة من افلام سلمان خان المتميزة مسجلة من mbc bollywood

تسلم الأياادي

رد مع اقتباس
  #5  
قديم 2016-06-18, 01:58 PM
mootez mootez غير متواجد حالياً
عضو مشارك
 
تاريخ التسجيل: Jun 2016
المشاركات: 128
mootez is on a distinguished road
افتراضي رد: باقة من افلام سلمان خان المتميزة مسجلة من mbc bollywood

بسم الله الرحمن الرحيم أجمل الافلام صدقا هي هذه الافلام مشكووور أخي على عملك اسمح لي ابدي اعجابي بقلمك وتميزك واسلوبك الراقي وتالقك

رد مع اقتباس
  #6  
قديم 2016-06-18, 01:59 PM
mootez mootez غير متواجد حالياً
عضو مشارك
 
تاريخ التسجيل: Jun 2016
المشاركات: 128
mootez is on a distinguished road
افتراضي رد: باقة من افلام سلمان خان المتميزة مسجلة من mbc bollywood

سلمان خان هو أفضل الممثلين عندي هشكووور على عملك

رد مع اقتباس
  #7  
قديم 2016-06-18, 02:01 PM
mootez mootez غير متواجد حالياً
عضو مشارك
 
تاريخ التسجيل: Jun 2016
المشاركات: 128
mootez is on a distinguished road
افتراضي رد: باقة من افلام سلمان خان المتميزة مسجلة من mbc bollywood

حقا أنه من أجمل و أروع الافلام التي شاهدتها مشكوووووور والله يعطيك الف عافيه

رد مع اقتباس
  #8  
قديم 2016-06-20, 02:23 PM
moootez moootez غير متواجد حالياً
عضو سوبر
 
تاريخ التسجيل: Apr 2016
المشاركات: 853
moootez is on a distinguished road
Smile رد: باقة من افلام سلمان خان المتميزة مسجلة من mbc bollywood

اخي هذا الممثل من أفضل الممثلين الهنود بنالسبة لي مشكور أخي على توفيرك لنا جميع هذه الأفلام الممتازة

رد مع اقتباس
  #9  
قديم 2017-03-20, 10:09 AM
maha maha غير متواجد حالياً
عضو برونزي
 
تاريخ التسجيل: Jan 2017
المشاركات: 5,640
maha is on a distinguished road
افتراضي رد: باقة من افلام سلمان خان المتميزة مسجلة من mbc bollywood


شكرا لك على هذه الباقة
الخاصة بالممثل الهندي سلمان خان

رد مع اقتباس
  #10  
قديم 2017-05-10, 05:55 PM
الصورة الرمزية MR D I A A
MR D I A A MR D I A A غير متواجد حالياً
 
تاريخ التسجيل: Dec 2014
المشاركات: 312
MR D I A A تم تعطيل التقييم
افتراضي رد: باقة من افلام سلمان خان المتميزة مسجلة من mbc bollywood

شكرا علي المجهود الكبير
تقبل تحياتي

__________________



رد مع اقتباس
إضافة رد

أدوات الموضوع
انواع عرض الموضوع

تعليمات المشاركة
لا تستطيع إضافة مواضيع جديدة
لا تستطيع الرد على المواضيع
لا تستطيع إرفاق ملفات
لا تستطيع تعديل مشاركاتك

BB code is متاحة
كود [IMG] متاحة
كود HTML معطلة

الانتقال السريع

المواضيع المتشابهه
الموضوع كاتب الموضوع المنتدى مشاركات آخر مشاركة
Bajrangi Bhaijaan.2015 تحميل ومشاهدة اكشن كوميدى سلمان خان nemr23 ملتقى عشاق السينما الهندية (بوليود ) 6 2017-03-20 10:10 AM

|

اعلانك يراه الكثير ... بأرخص الأسعار

Powered by vBulletin® Copyright ©2000 - 2019, Jelsoft Enterprises Ltd. TranZ By Almuhajir