الاستماع للقران الكريم          مركز رفع الصور         صفحتنا علي الفيس بوك

           

تنبية مهم لكل عضو قبل طرح المواضيع :: لتفادي إيقاف العضوية وحذف جميع المواضيع نأمل من كل عضو طرح مواضيعه في القسم المخصص لها وإلا سوف يتم حذف جميع مواضيعه وحظر عضويته فـوراً ..


آخر 10 مشاركات سعر الذهب في مصر والدول العربية 7/3/2021 (الكاتـب : سارة الحلوانى - )           »          ToolsToo Pro 9.0.1.0 (الكاتـب : mitsumi - )           »          ThunderSoft AlbumMe Deluxe 5.6.0 Multilingual (الكاتـب : mitsumi - )           »          Handicap Manager 7.0.2.0 for Excel (الكاتـب : mitsumi - )           »          App Builder 2021.31 (x64) (الكاتـب : mitsumi - )           »          VirtualDJ 2021 Pro Infinity 8.5.6334 (الكاتـب : mitsumi - )           »          Blur n Bokeh 3.4 macOS (الكاتـب : mitsumi - )           »          AudioFinder 6.0.6 macOS (الكاتـب : mitsumi - )           »          A Better Finder Rename 11.29 macOS (الكاتـب : mitsumi - )           »          Toontrack EZbass v1.0.8 MacOSX (الكاتـب : mitsumi - )

إضافة رد
 
أدوات الموضوع انواع عرض الموضوع
  #1  
قديم 2016-02-25, 03:59 AM
الصورة الرمزية nemr23
nemr23 nemr23 غير متواجد حالياً
 
تاريخ التسجيل: Feb 2016
المشاركات: 66
nemr23 is on a distinguished road
افتراضي Hotel.Transylvania.II.2015.مدبلج 1080p.BRrip تحميل ومشاهدة








فيلم الأنمى الكوميدى الفانتازيا

Hotel.Transylvania.II.2015.1080p.BRrip
(فندق ترنسلفانيا)

نسخة مدبلجة
1080p.BRrip بمساحة 1.37 جيجا







General
Hotel.Transylvania.II.2015.1080p.BRrip.x264.Arabic .by.nemr23.mkv
Format : Matroska
Format version : Version 4 / Version 2
File size : 1.73 GiB
Duration : 1h 29mn
Overall bit rate : 2 765 Kbps
Movie name : Mohamed1818@arabicsource.net
Encoded date : UTC 2015-12-22 15:05:50
Writing application : mkvmerge v8.5.2 ('Crosses') 64bit
Writing library : libebml v1.3.3 + libmatroska v1.4.4
DURATION : 0116.160000000
NUMBER_OF_FRAMES : 167380
NUMBER_OF_BYTES : 257095680
_STATISTICS_WRITING_APP : mkvmerge v8.5.2 ('Crosses') 64bit
_STATISTICS_WRITING_DATE_UT : 2015-12-22 15:05:50
_STATISTICS_TAGS : BPS DURATION NUMBER_OF_FRAMES NUMBER_OF_BYTES

Video
ID : 1
Format : AVC
Format/Info : Advanced Video Codec
Format profile : Main@L4
Format settings, CABAC : Yes
Format settings, ReFrames : 4 frames
Codec ID : V_MPEG4/ISO/AVC
Duration : 1h 29mn
Bit rate : 2 000 Kbps
Width : 1 920 pixels
Height : 1 028 pixels
Display aspect ratio : 1.85:1
Frame rate mode : Constant
Frame rate : 23.976 fps
Color space : YUV
Chroma subsampling : 40
Bit depth : 8 bits
Scan type : Progressive
Bits/(Pixel*Frame) : 0.042
Stream size : 1.22 GiB (70%)
Title : Hotel.Transylvania.2.2015.1080p.BRrip.x264.AST
Writing library : x264 core 142 r2479 dd79a61
Encoding settings : cabac=1 / ref=3 / deblock=1:-1:-1 / analyse=0x1:0x111 / me=hex / subme=7 / psy=1 / psy_rd=1.00:0.15 / mixed_ref=1 / me_range=16 / chroma_me=1 / trellis=1 / 8x8dct=0 / cqm=0 / deadzone=21,11 / fast_pskip=1 / chroma_qp_offset=-3 / threads=12 / lookahead_threads=2 / sliced_threads=0 / nr=0 / decimate=1 / interlaced=0 / bluray_compat=0 / constrained_intra=0 / bframes=3 / b_pyramid=2 / b_adapt=1 / b_bias=0 / direct=1 / weightb=1 / open_gop=0 / weightp=2 / keyint=240 / keyint_min=24 / scenecut=40 / intra_refresh=0 / rc_lookahead=40 / rc=2pass / mbtree=1 / bitrate=2000 / ratetol=1.0 / qcomp=0.60 / qpmin=0 / qpmax=69 / qpstep=4 / cplxblur=20.0 / qblur=0.5 / vbv_maxrate=20000 / vbv_bufsize=25000 / nal_hrd=none / filler=0 / ip_ratio=1.40 / aq=1:1.00
Language : English
Default : Yes
Forced : No
Color range : Limited
Color primaries : BT.709
Transfer characteristics : BT.709
Matrix coefficients : BT.709

Audio #1
ID : 2
Format : AC-3
Format/Info : Audio Coding 3
Mode extension : CM (complete main)
Format settings, Endianness : Big
Codec ID : A_AC3
Duration : 1h 29mn
Bit rate mode : Constant
Bit rate : 384 Kbps
Channel(s) : 6 channels
Channel positions : Front: L C R, Side: L R, LFE
Sampling rate : 48.0 KHz
Compression mode : Lossy
Stream size : 247 MiB (14%)
Title : Arabic Original Itunes Ac3 Audio
Language : Arabic
Default : Yes
Forced : No

Audio #2
ID : 3
Format : AC-3
Format/Info : Audio Coding 3
Mode extension : CM (complete main)
Format settings, Endianness : Big
Codec ID : A_AC3
Duration : 1h 29mn
Bit rate mode : Constant
Bit rate : 384 Kbps
Channel(s) : 6 channels
Channel positions : Front: L C R, Side: L R, LFE
Sampling rate : 48.0 KHz
Compression mode : Lossy
Stream size : 247 MiB (14%)
Title : English Original Itunes Ac3 Audio
Language : English
Default : No
Forced : No

Text #1
ID : 4
Format : UTF-8
Codec ID : S_TEXT/UTF8
Codec ID/Info : UTF-8 Plain Text
Title : Arabic SRT Subtitle
Language : Arabic
Default : No
Forced : No

Text #2
ID : 5
Format : UTF-8
Codec ID : S_TEXT/UTF8
Codec ID/Info : UTF-8 Plain Text
Title : English SRT Subtitle
Language : English
Default : No
Forced : No







http://sh.st/nTMQ6
او
http://adf.ly/1UG3AF
http://adf.ly/1UG3AG

رابط المشاهدة
http://sh.st/nUZ2t


رد مع اقتباس
  #2  
قديم 2016-02-26, 08:57 AM
الصورة الرمزية العجواني
العجواني العجواني غير متواجد حالياً
 
تاريخ التسجيل: May 2015
المشاركات: 466
العجواني is on a distinguished road
افتراضي

رائع جدا ياغالي
واصل ابداعك

رد مع اقتباس
  #3  
قديم 2016-06-20, 02:30 PM
moootez moootez غير متواجد حالياً
عضو سوبر
 
تاريخ التسجيل: Apr 2016
المشاركات: 853
moootez is on a distinguished road
Smile رد: Hotel.Transylvania.II.2015.مدبلج 1080p.BRrip تحميل ومشاهدة

حقيقة مخرج هذا الفيلم شخص مبدع بأتم معنى الكلمة فيلم ممتاز مليئ بالكوميديا و المواقف الطريفة مشكور أخي

رد مع اقتباس
  #4  
قديم 2016-06-20, 03:12 PM
mootez mootez غير متواجد حالياً
عضو مشارك
 
تاريخ التسجيل: Jun 2016
المشاركات: 128
mootez is on a distinguished road
افتراضي رد: Hotel.Transylvania.II.2015.مدبلج 1080p.BRrip تحميل ومشاهدة

من أجمل ما شاهدت مشكووور على العمل المبذول منك

رد مع اقتباس
  #5  
قديم 2016-06-20, 03:13 PM
mootez mootez غير متواجد حالياً
عضو مشارك
 
تاريخ التسجيل: Jun 2016
المشاركات: 128
mootez is on a distinguished road
افتراضي رد: Hotel.Transylvania.II.2015.مدبلج 1080p.BRrip تحميل ومشاهدة

أعجبني الفيلم ألى درجة أنني شاهدته أكثر من مرة

رد مع اقتباس
  #6  
قديم 2016-06-20, 03:14 PM
mootez mootez غير متواجد حالياً
عضو مشارك
 
تاريخ التسجيل: Jun 2016
المشاركات: 128
mootez is on a distinguished road
افتراضي رد: Hotel.Transylvania.II.2015.مدبلج 1080p.BRrip تحميل ومشاهدة

فيلم ممتاز بأستحقاق مشكوور جدا على العمل البذول منك

رد مع اقتباس
  #7  
قديم 2016-09-02, 06:06 AM
الصورة الرمزية shimaa taha
shimaa taha shimaa taha غير متواجد حالياً
 
تاريخ التسجيل: Aug 2016
المشاركات: 1,041
shimaa taha is on a distinguished road
افتراضي رد: Hotel.Transylvania.II.2015.مدبلج 1080p.BRrip تحميل ومشاهدة

فيلم كارتوني جميل ، شكرًا على مشاركته معنا

رد مع اقتباس
  #8  
قديم 2017-03-23, 11:48 AM
maha maha غير متواجد حالياً
عضو برونزي
 
تاريخ التسجيل: Jan 2017
المشاركات: 6,124
maha is on a distinguished road
افتراضي رد: Hotel.Transylvania.II.2015.مدبلج 1080p.BRrip تحميل ومشاهدة

شكرا لك لاختيارك هذا الفيلم الفنتازي

رد مع اقتباس
إضافة رد

أدوات الموضوع
انواع عرض الموضوع

تعليمات المشاركة
لا تستطيع إضافة مواضيع جديدة
لا تستطيع الرد على المواضيع
لا تستطيع إرفاق ملفات
لا تستطيع تعديل مشاركاتك

BB code is متاحة
كود [IMG] متاحة
كود HTML معطلة

الانتقال السريع

المواضيع المتشابهه
الموضوع كاتب الموضوع المنتدى مشاركات آخر مشاركة
Dilwale 2015 مترجم FHD 1080p شاروخ خان وكاجول تحميل ومشاهدة nemr23 ملتقى عشاق السينما الهندية (بوليود ) 15 2017-03-23 07:14 PM
تحميل فيلم الأنيميشن الرائع The Peanuts Movie 2015 - 720p Bluray مدبلج خالد مشعل منتدي أفلام الأنمي والكارتون 4 2017-03-23 05:33 PM
افلام 3D 2015 جودة 1080p تحميل مباشر mohamedabdelbaset قسم الافلام الاجنبية 5 2017-03-21 10:33 AM
حصريا تحميل ومشاهدة By the Sea 2015 HC HDRip كامل ومترجم MakMak قسم الافلام الاجنبية 4 2017-03-20 11:41 PM
افلام 3D 2015 جودة 1080p تحميل مباشر mohamedabdelbaset قسم الافلام الاجنبية 3 2017-03-20 11:47 AM

|

اعلانك يراه الكثير ... بأرخص الأسعار