الاستماع للقران الكريم          مركز رفع الصور         صفحتنا علي الفيس بوك

           

تنبية مهم لكل عضو قبل طرح المواضيع :: لتفادي إيقاف العضوية وحذف جميع المواضيع نأمل من كل عضو طرح مواضيعه في القسم المخصص لها وإلا سوف يتم حذف جميع مواضيعه وحظر عضويته فـوراً ..


آخر 10 مشاركات كيف تتاجر في البتكوين والعملات المشفّرة (الكاتـب : الغروووب - )           »          AquaSoft SlideShow Ultimate 12.2.01 Multilingual Portable (الكاتـب : mitsumi - )           »          AquaSoft SlideShow Premium 12.2.01 Multilingual Portable (الكاتـب : mitsumi - )           »          4K YouTube to MP3 3.15.0.4160 Portable (الكاتـب : mitsumi - )           »          Altium Designer v21.1.1 Build 26 (x64) Portable (الكاتـب : apple2000 - )           »          Artlantis 2021 v9.5.2.25648 Multilingual (الكاتـب : apple2000 - )           »          Autodesk Revit LT 2021.1 (x64) Multilanguage (الكاتـب : apple2000 - )           »          BETA-CAE Systems 20.1.5 (الكاتـب : apple2000 - )           »          Cimatron 15.0 SP3 (الكاتـب : apple2000 - )           »          Corel VideoStudio Ultimate 2021 v24.0.1.260 (الكاتـب : apple2000 - )

 
 
أدوات الموضوع انواع عرض الموضوع
  #1  
قديم 2016-02-24, 07:34 PM
الصورة الرمزية nemr23
nemr23 nemr23 غير متواجد حالياً
 
تاريخ التسجيل: Feb 2016
المشاركات: 66
nemr23 is on a distinguished road
افتراضي Bajrangi Bhaijaan.2015 تحميل ومشاهدة اكشن كوميدى سلمان خان






فيلم الأكشن الكوميدى

Bajrangi Bhaijaan.2015


بطولة
سلمان خان
كارينا كابور

نسخة مسجلة من mbc بوليوود بمساحة 2.21








General
Bajrangi Bhaijaan.2015.by.nemr23.mpg
Format : MPEG-PS
File size : 2.21 GiB
Duration : 2h 31mn
Overall bit rate mode : Variable
Overall bit rate : 2 095 Kbps

Video
ID : 224 (0xE0)
Format : MPEG Video
Format version : Version 2
Format profile : Main@Main
Format settings, BVOP : Yes
Format settings, Matrix : Custom
Format settings, GOP : Variable
Format settings, picture st : Frame
Duration : 2h 31mn
Bit rate mode : Variable
Bit rate : 1 926 Kbps
Maximum bit rate : 15.0 Mbps
Width : 720 pixels
Height : 576 pixels
Display aspect ratio : 16:9
Frame rate : 25.000 fps
Standard : PAL
Color space : YUV
Chroma subsampling : 40
Bit depth : 8 bits
Scan type : Interlaced
Scan order : Top Field First
Compression mode : Lossy
Bits/(Pixel*Frame) : 0.186
Time code of first frame : 00:00:00:00
Time code source : Group of pictures header
GOP, Open/Closed : Open
GOP, Open/Closed of first f : Closed
Stream size : 2.03 GiB (92%)

Audio
ID : 192 (0xC0)
Format : MPEG Audio
Format version : Version 1
Format profile : Layer 2
Duration : 2h 31mn
Bit rate mode : Constant
Bit rate : 128 Kbps
Channel(s) : 2 channels
Sampling rate : 48.0 KHz
Compression mode : Lossy
Delay relative to video : 22ms
Stream size : 138 MiB (6%)














http://sh.st/mJe1d
http://sh.st/mJe1k
http://sh.st/mJe1v

او
http://sh.st/mJuwo

رابط المشاهدة والتورنت
http://sh.st/mJyQW

رد مع اقتباس
 

أدوات الموضوع
انواع عرض الموضوع

تعليمات المشاركة
لا تستطيع إضافة مواضيع جديدة
لا تستطيع الرد على المواضيع
لا تستطيع إرفاق ملفات
لا تستطيع تعديل مشاركاتك

BB code is متاحة
كود [IMG] متاحة
كود HTML معطلة

الانتقال السريع

المواضيع المتشابهه
الموضوع كاتب الموضوع المنتدى مشاركات آخر مشاركة
Dilwale 2015 مترجم FHD 1080p شاروخ خان وكاجول تحميل ومشاهدة nemr23 ملتقى عشاق السينما الهندية (بوليود ) 15 2017-03-23 07:14 PM
Hotel.Transylvania.II.2015.مدبلج 1080p.BRrip تحميل ومشاهدة nemr23 منتدي أفلام الأنمي والكارتون 7 2017-03-23 11:48 AM
حصريا تحميل ومشاهدة By the Sea 2015 HC HDRip كامل ومترجم MakMak قسم الافلام الاجنبية 4 2017-03-20 11:41 PM
Immaan Dharam (1977 مترجم اكشن لاميتاب وشاشى كابور تحميل ومشاهدة وتورنت nemr23 ملتقى عشاق السينما الهندية (بوليود ) 7 2016-09-02 05:51 AM

|

اعلانك يراه الكثير ... بأرخص الأسعار