الاستماع للقران الكريم          مركز رفع الصور         صفحتنا علي الفيس بوك

           

تنبية مهم لكل عضو قبل طرح المواضيع :: لتفادي إيقاف العضوية وحذف جميع المواضيع نأمل من كل عضو طرح مواضيعه في القسم المخصص لها وإلا سوف يتم حذف جميع مواضيعه وحظر عضويته فـوراً ..


آخر 10 مشاركات Abelssoft X-Loader 2021 1.83 Multilingual (الكاتـب : mitsumi - )           »          Abelssoft Doku Downloader Plus 2021 3.61 Multilingual (الكاتـب : mitsumi - )           »          3D Youtube Downloader 1.19.7 Multilingual (الكاتـب : mitsumi - )           »          Trimble Tekla Structures 2020 SP7 (الكاتـب : mitsumi - )           »          Sigmadyne SigFit 2020R1e (الكاتـب : mitsumi - )           »          Geometric Glovius Pro 5.2.0.121 (الكاتـب : mitsumi - )           »          Geomagic Wrap 2021.0.0.3008 (x64) (الكاتـب : mitsumi - )           »          EPLAN Fluid 2.9 SP1 Update 5 (الكاتـب : mitsumi - )           »          Cadence Systems Analysis Sigrity 2021.1 HF1 (الكاتـب : mitsumi - )           »          Autodesk 3ds Max 2022 with Offline Help (الكاتـب : mitsumi - )

إضافة رد
 
أدوات الموضوع انواع عرض الموضوع
  #1  
قديم 2016-02-24, 06:28 PM
الصورة الرمزية nemr23
nemr23 nemr23 غير متواجد حالياً
 
تاريخ التسجيل: Feb 2016
المشاركات: 66
nemr23 is on a distinguished road
افتراضي kaala patthar 1979 تحميل ومشاهدة أميتاب وشاشى كابور






فيلم الاكشن الدرامى المتميز

kaala patthar 1979

بطولة
الأسطورة أميتاب
شاشى كابور
ريكى جولزال
نيتو سينج
شيتروخان سينها

نسخة مترجمة مسجلة من mbc بوليوود
غير مضغوطة بمساحة 3.30 جيجا







General
b4u , mbc ,tv.by.nemr23\Kaala Patthar.1979.by.nemr23.mpg
Format : MPEG-PS
File size : 3.31 GiB
Duration : 2h 43mn
Overall bit rate mode : Variable
Overall bit rate : 2 896 Kbps

Video
ID : 224 (0xE0)
Format : MPEG Video
Format version : Version 2
Format profile : Main@Main
Format settings, BVOP : Yes
Format settings, Matrix : Custom
Format settings, GOP : M=3, N=12
Format settings, picture st : Frame
Duration : 2h 43mn
Bit rate mode : Variable
Bit rate : 2 710 Kbps
Maximum bit rate : 15.0 Mbps
Width : 704 pixels
Height : 576 pixels
Display aspect ratio : 16:9
Frame rate : 25.000 fps
Standard : PAL
Color space : YUV
Chroma subsampling : 40
Bit depth : 8 bits
Scan type : Interlaced
Scan order : Top Field First
Compression mode : Lossy
Bits/(Pixel*Frame) : 0.267
Time code of first frame : 00:00:00:00
Time code source : Group of pictures header
GOP, Open/Closed : Open
Stream size : 3.10 GiB (94%)
GOP, Open/Closed of first f : Closed

Audio
ID : 192 (0xC0)
Format : MPEG Audio
Format version : Version 1
Format profile : Layer 2
Duration : 2h 43mn
Bit rate mode : Constant
Bit rate : 128 Kbps
Channel(s) : 2 channels
Sampling rate : 48.0 KHz
Compression mode : Lossy
Delay relative to video : 4ms
Stream size : 150 MiB (4%)

















http://sh.st/Wh3EY
او
http://sh.st/Wh35G

تحميل الفيلم مقسم
http://sh.st/Wh4Wp
http://sh.st/Wh4Wg
http://sh.st/Wh4Wz
http://sh.st/Wh4Wn


رابط المشاهدة
http://sh.st/Wh6zJ



رد مع اقتباس
  #2  
قديم 2016-02-24, 09:06 PM
الصورة الرمزية MR D I A A
MR D I A A MR D I A A غير متواجد حالياً
 
تاريخ التسجيل: Dec 2014
المشاركات: 312
MR D I A A تم تعطيل التقييم
افتراضي

اهلا وسهلا أستاذ محمد
أسطورة المنتديات الفنية
حقيقة نورتنا وشرفنا انضمامك معنا في المنتدي
وتسلم ايدك علي المواضيع المميزة
تحياتي لك

__________________



رد مع اقتباس
  #3  
قديم 2016-04-10, 06:08 AM
الصورة الرمزية KHALED_RAMADAN
KHALED_RAMADAN KHALED_RAMADAN غير متواجد حالياً
 
تاريخ التسجيل: Mar 2016
المشاركات: 1,044
KHALED_RAMADAN is on a distinguished road
إرسال رسالة عبر MSN إلى KHALED_RAMADAN إرسال رسالة عبر Yahoo إلى KHALED_RAMADAN
افتراضي

الف شكر لك على مجهودك الطيب
تقبل تحياتى

__________________
350تيرا للتبادل والبيع اكبر مكتبة افلام ومسلسلات فى الشرق
مسلسلات رمضان 2019 جودة اتش دى
اخر تحديث اللستة من هنا بتاريخ 15 - 06 - 2019
http://www.mediafire.com/file/fbb6pio6h688gij/15+-+06+-+2019+++اللستة++خالد+رمضان%283%29.rar
كن صادقا يحترمك الناس
يهمنا الاحترام ودقة المواعيد
الشحن لجميع دول العالم
Kh_nana15555@hotmail.com
Kh_nana1555@yahoo.com
https://www.facebook.com/profile.php?id=100029476775104
00201225575997
رد مع اقتباس
  #4  
قديم 2016-06-16, 02:24 PM
soosf soosf غير متواجد حالياً
عضو سوبر
 
تاريخ التسجيل: Apr 2016
المشاركات: 811
soosf is on a distinguished road
افتراضي رد: kaala patthar 1979 تحميل ومشاهدة أميتاب وشاشى كابور

منتدى ررائع موفقين يا رب

رد مع اقتباس
  #5  
قديم 2016-06-18, 01:33 PM
mootez mootez غير متواجد حالياً
عضو مشارك
 
تاريخ التسجيل: Jun 2016
المشاركات: 128
mootez is on a distinguished road
افتراضي رد: kaala patthar 1979 تحميل ومشاهدة أميتاب وشاشى كابور

من أجمل و أروع ما شاهدت حقا أنه من أجمل لافلام

رد مع اقتباس
  #6  
قديم 2016-06-18, 01:34 PM
mootez mootez غير متواجد حالياً
عضو مشارك
 
تاريخ التسجيل: Jun 2016
المشاركات: 128
mootez is on a distinguished road
افتراضي رد: kaala patthar 1979 تحميل ومشاهدة أميتاب وشاشى كابور

فيلم رائع و ممتاز مشكووور أخي على عملك

رد مع اقتباس
  #7  
قديم 2016-06-18, 01:35 PM
mootez mootez غير متواجد حالياً
عضو مشارك
 
تاريخ التسجيل: Jun 2016
المشاركات: 128
mootez is on a distinguished road
افتراضي رد: kaala patthar 1979 تحميل ومشاهدة أميتاب وشاشى كابور

ممتاز بحق من أروع ما شاهدت أنه من أحسن لافلام

رد مع اقتباس
  #8  
قديم 2016-06-20, 02:40 PM
moootez moootez غير متواجد حالياً
عضو سوبر
 
تاريخ التسجيل: Apr 2016
المشاركات: 853
moootez is on a distinguished road
افتراضي رد: kaala patthar 1979 تحميل ومشاهدة أميتاب وشاشى كابور

من أفضل الأفلام الهنديّة التي شاهدتها تسلم الأيادي يا غالي مشكور

رد مع اقتباس
  #9  
قديم 2016-08-30, 10:10 PM
الصورة الرمزية shimaa taha
shimaa taha shimaa taha غير متواجد حالياً
 
تاريخ التسجيل: Aug 2016
المشاركات: 1,041
shimaa taha is on a distinguished road
افتراضي رد: kaala patthar 1979 تحميل ومشاهدة أميتاب وشاشى كابور

فيلم جميل و مجهودك أجمل

رد مع اقتباس
  #10  
قديم 2017-03-20, 10:13 AM
maha maha غير متواجد حالياً
عضو برونزي
 
تاريخ التسجيل: Jan 2017
المشاركات: 6,124
maha is on a distinguished road
افتراضي رد: kaala patthar 1979 تحميل ومشاهدة أميتاب وشاشى كابور


شكرا لك لاختيارك احدى أفلام
الاسطورة

رد مع اقتباس
إضافة رد

أدوات الموضوع
انواع عرض الموضوع

تعليمات المشاركة
لا تستطيع إضافة مواضيع جديدة
لا تستطيع الرد على المواضيع
لا تستطيع إرفاق ملفات
لا تستطيع تعديل مشاركاتك

BB code is متاحة
كود [IMG] متاحة
كود HTML معطلة

الانتقال السريع

المواضيع المتشابهه
الموضوع كاتب الموضوع المنتدى مشاركات آخر مشاركة
Dilwale 2015 مترجم FHD 1080p شاروخ خان وكاجول تحميل ومشاهدة nemr23 ملتقى عشاق السينما الهندية (بوليود ) 15 2017-03-23 06:14 PM
حصريا تحميل ومشاهدة By the Sea 2015 HC HDRip كامل ومترجم MakMak قسم الافلام الاجنبية 4 2017-03-20 10:41 PM
Bajrangi Bhaijaan.2015 تحميل ومشاهدة اكشن كوميدى سلمان خان nemr23 ملتقى عشاق السينما الهندية (بوليود ) 6 2017-03-20 10:10 AM
Immaan Dharam (1977 مترجم اكشن لاميتاب وشاشى كابور تحميل ومشاهدة وتورنت nemr23 ملتقى عشاق السينما الهندية (بوليود ) 7 2016-09-02 04:51 AM

|

اعلانك يراه الكثير ... بأرخص الأسعار