منتديات الديفيدى العربى

منتديات الديفيدى العربى (https://www.newdvd4arab.com/index.php)
-   ملتقى عشاق السينما الهندية (بوليود ) (https://www.newdvd4arab.com/forumdisplay.php?f=272)
-   -   باقة من افلام سلمان خان المتميزة مسجلة من mbc bollywood (https://www.newdvd4arab.com/showthread.php?t=14554)

nemr23 2016-03-04 05:23 PM

باقة من افلام سلمان خان المتميزة مسجلة من mbc bollywood
 

http://i12.photobucket.com/albums/a2...psqkbnzbsg.gif



باقة من أجمل أفلام
سلمان خان

نسخ مترجمة مسجلة من mbc بوليوود غير مضغوطة
بصيغة mpg بمساحة 15 جيجا


6 أفلام متميزة
Kck.2014
Jai Ho.2014
Ek Tha Tiger.2012
Dabangg 2.2012
Dabangg.2010
Hum Dil De Chuke Sanam.1990




http://i.imgur.com/94Ceqjc.jpg



General
باقة من افلام سلمان خان على.by.nemr23 mbc bollywood
Format : MPEG-PS
File size : 15.21 GiB
Duration :
Overall bit rate mode : Variable
Overall bit rate : 2 095 Kbps

Video
ID : 224 (0xE0)
Format : MPEG Video
Format version : Version 2
Format profile : Main@Main
Format settings, BVOP : Yes
Format settings, Matrix : Custom
Format settings, GOP : Variable
Format settings, picture st : Frame
Duration :
Bit rate mode : Variable
Bit rate : 1 926 Kbps
Maximum bit rate : 15.0 Mbps
Width : 720 pixels
Height : 576 pixels
Display aspect ratio : 16:9
Frame rate : 25.000 fps
Standard : PAL
Color space : YUV
Chroma subsampling : 4http://egystars.com/vb/images/new%20smilies/2.png0
Bit depth : 8 bits
Scan type : Interlaced
Scan order : Top Field First
Compression mode : Lossy
Bits/(Pixel*Frame) : 0.186
Time code of first frame : 00:00:00:00
Time code source : Group of pictures header
GOP, Open/Closed : Open
GOP, Open/Closed of first f : Closed
Stream size : 2.03 GiB (92%)

Audio
ID : 192 (0xC0)
Format : MPEG Audio
Format version : Version 1
Format profile : Layer 2
Duration : 2h 31mn
Bit rate mode : Constant
Bit rate : 128 Kbps
Channel(s) : 2 channels
Sampling rate : 48.0 KHz
Compression mode : Lossy
Delay relative to video : 22ms
Stream size : 138 MiB (6%)


http://i.imgur.com/b7C1Jgi.gif

http://i.imgur.com/tvxPTpp.jpg

http://i.imgur.com/A0EMt61.jpg

http://i.imgur.com/uLOtj5n.jpg

http://i.imgur.com/F8kHJrZ.jpg

http://i.imgur.com/QdqbDts.jpg

http://i.imgur.com/0ulpov7.jpg

http://i.imgur.com/78K1HVU.jpg

http://i.imgur.com/okIEEOR.jpg

http://i.imgur.com/NhiaOTy.jpg

http://i.imgur.com/OLlhizf.jpg

http://i.imgur.com/d6bvzjJ.jpg

http://i.imgur.com/BhJ4xE4.jpg

http://i.imgur.com/QROhn76.jpg

http://i.imgur.com/0lQEOoN.jpg

http://i.imgur.com/Pkw6oTH.jpg

http://i.imgur.com/Lgm6pSP.jpg

رابط المشاهدة
http://sh.st/QfwHO



Dabangg.2010
http://sh.st/QaJxM
او
http://sh.st/QaKqd
او
اجزاء
http://sh.st/QaZag
http://sh.st/QaZaz


رابط المشاهدة
http://sh.st/Qfruc


Dabangg 2.2012
http://sh.st/QaXXV
او
http://sh.st/Qa13l
او اجزاء
http://sh.st/QaMeH
http://sh.st/Qa1s8

رابط المشاهدة
http://sh.st/QfrLP


Ek Tha Tiger.2012
http://sh.st/Qa8ok
او
http://sh.st/Qa9EV

او اجزاء
http://sh.st/Qsrx8
http://sh.st/Qsrci

رابط المشاهدة
http://sh.st/QftgY


Jai Ho.2014
http://sh.st/Qsykk
او
http://sh.st/Qsulc

او اجزاء
http://sh.st/Qsijj
http://sh.st/Qsijc

رابط المشاهدة
http://sh.st/Qfya4



Kck.2014
http://sh.st/QsohB
او
http://sh.st/QsfQi

رابط المشاهدة
http://sh.st/QfyX7


رابط التورنت والف شكر arabp2p
http://sh.st/QsgCA







العجواني 2016-03-04 05:49 PM

دائما متميز استاذ محمد
تسلم ايدك والي الامام دائما

KHALED_RAMADAN 2016-04-10 06:10 AM

الف شكر لك على مجهودك الطيب
تقبل تحياتى

soosf 2016-06-16 02:20 PM

رد: باقة من افلام سلمان خان المتميزة مسجلة من mbc bollywood
 
تسلم الأياادي

mootez 2016-06-18 01:58 PM

رد: باقة من افلام سلمان خان المتميزة مسجلة من mbc bollywood
 
بسم الله الرحمن الرحيم أجمل الافلام صدقا هي هذه الافلام مشكووور أخي على عملك اسمح لي ابدي اعجابي بقلمك وتميزك واسلوبك الراقي وتالقك

mootez 2016-06-18 01:59 PM

رد: باقة من افلام سلمان خان المتميزة مسجلة من mbc bollywood
 
سلمان خان هو أفضل الممثلين عندي هشكووور على عملك

mootez 2016-06-18 02:01 PM

رد: باقة من افلام سلمان خان المتميزة مسجلة من mbc bollywood
 
حقا أنه من أجمل و أروع الافلام التي شاهدتها مشكوووووور والله يعطيك الف عافيه

moootez 2016-06-20 02:23 PM

رد: باقة من افلام سلمان خان المتميزة مسجلة من mbc bollywood
 
اخي هذا الممثل من أفضل الممثلين الهنود بنالسبة لي مشكور أخي على توفيرك لنا جميع هذه الأفلام الممتازة

maha 2017-03-20 10:09 AM

رد: باقة من افلام سلمان خان المتميزة مسجلة من mbc bollywood
 

شكرا لك على هذه الباقة
الخاصة بالممثل الهندي سلمان خان


MR D I A A 2017-05-10 05:55 PM

رد: باقة من افلام سلمان خان المتميزة مسجلة من mbc bollywood
 
شكرا علي المجهود الكبير
تقبل تحياتي


الساعة الآن 07:28 AM

Powered by vBulletin® Copyright ©2000 - 2019, Jelsoft Enterprises Ltd. TranZ By Almuhajir

Security team