منتديات الديفيدى العربى

منتديات الديفيدى العربى (https://www.newdvd4arab.com/index.php)
-   ملتقى عشاق السينما الهندية (بوليود ) (https://www.newdvd4arab.com/forumdisplay.php?f=272)
-   -   Bajrangi Bhaijaan.2015 تحميل ومشاهدة اكشن كوميدى سلمان خان (https://www.newdvd4arab.com/showthread.php?t=14312)

nemr23 2016-02-24 07:34 PM

Bajrangi Bhaijaan.2015 تحميل ومشاهدة اكشن كوميدى سلمان خان
 
http://i.imgur.com/T85J0aN.gif




فيلم الأكشن الكوميدى

Bajrangi Bhaijaan.2015


بطولة
سلمان خان
كارينا كابور

نسخة مسجلة من mbc بوليوود بمساحة 2.21

http://i.imgur.com/md06RQR.jpg


http://i.imgur.com/SvfGXhe.jpg

http://i.imgur.com/L6hyOuJ.png

General
Bajrangi Bhaijaan.2015.by.nemr23.mpg
Format : MPEG-PS
File size : 2.21 GiB
Duration : 2h 31mn
Overall bit rate mode : Variable
Overall bit rate : 2 095 Kbps

Video
ID : 224 (0xE0)
Format : MPEG Video
Format version : Version 2
Format profile : Main@Main
Format settings, BVOP : Yes
Format settings, Matrix : Custom
Format settings, GOP : Variable
Format settings, picture st : Frame
Duration : 2h 31mn
Bit rate mode : Variable
Bit rate : 1 926 Kbps
Maximum bit rate : 15.0 Mbps
Width : 720 pixels
Height : 576 pixels
Display aspect ratio : 16:9
Frame rate : 25.000 fps
Standard : PAL
Color space : YUV
Chroma subsampling : 4http://egystars.com/vb/images/new%20smilies/2.png0
Bit depth : 8 bits
Scan type : Interlaced
Scan order : Top Field First
Compression mode : Lossy
Bits/(Pixel*Frame) : 0.186
Time code of first frame : 00:00:00:00
Time code source : Group of pictures header
GOP, Open/Closed : Open
GOP, Open/Closed of first f : Closed
Stream size : 2.03 GiB (92%)

Audio
ID : 192 (0xC0)
Format : MPEG Audio
Format version : Version 1
Format profile : Layer 2
Duration : 2h 31mn
Bit rate mode : Constant
Bit rate : 128 Kbps
Channel(s) : 2 channels
Sampling rate : 48.0 KHz
Compression mode : Lossy
Delay relative to video : 22ms
Stream size : 138 MiB (6%)


http://i.imgur.com/b7C1Jgi.gif

http://i.imgur.com/uLOtj5n.jpg


http://i.imgur.com/F8kHJrZ.jpg

http://i.imgur.com/d6bvzjJ.jpg


http://i.imgur.com/BhFFT5A.jpg

http://sh.st/mJe1d
http://sh.st/mJe1k
http://sh.st/mJe1v

او
http://sh.st/mJuwo

رابط المشاهدة والتورنت
http://sh.st/mJyQW

MR D I A A 2016-02-24 10:08 PM

اهلا وسهلا أستاذ محمد
أسطورة المنتديات الفنية
حقيقة نورتنا وشرفنا انضمامك معنا في المنتدي
وتسلم ايدك علي المواضيع المميزة
وأتمني للجميع مشاهدة ممتعة
تحياتي لك

KHALED_RAMADAN 2016-04-10 07:08 AM

الف شكر لك على مجهودك الطيب
تقبل تحياتى

soosf 2016-06-16 03:24 PM

رد: Bajrangi Bhaijaan.2015 تحميل ومشاهدة اكشن كوميدى سلمان خان
 
شكررا

moootez 2016-06-20 03:54 PM

رد: Bajrangi Bhaijaan.2015 تحميل ومشاهدة اكشن كوميدى سلمان خان
 
فيلم ممتاز و مليئ بالمواقف المضحكة و الطريفة مشكور أخي على المجهودات الطيبة تسلم الأيادي

shimaa taha 2016-08-30 11:08 PM

رد: Bajrangi Bhaijaan.2015 تحميل ومشاهدة اكشن كوميدى سلمان خان
 
تحياتي لك على مشاركتك الجميله

maha 2017-03-20 11:10 AM

رد: Bajrangi Bhaijaan.2015 تحميل ومشاهدة اكشن كوميدى سلمان خان
 
شكرا لك لاختيارك ومجهوداتك



الساعة الآن 11:54 PM

Powered by vBulletin® Copyright ©2000 - 2021, Jelsoft Enterprises Ltd. TranZ By Almuhajir

Security team