إختر لونك :
Facebook Twitter Google Plus Rss
منتديات الديفيدى العربى أعلن معنا
العودة   منتديات الديفيدى العربى > منتديات الديفيدى الفنية > منتدي أفلام الأنمي والكارتون > قسم تحميل افلام الكارتون بروابط مباشرة
آخر 10 مشاركات البرنامج التدريبي (الوساطة والتداول) تدريب الكتروني متاح 24... (الكاتـب : الغروووب - )           »          البرنامج التدريبي (صناعة الفرنشايز ) تدريب الكتروني ذاتي... (الكاتـب : الغروووب - )           »          ارخص اسعار ايجار سيارة مع سائق في اسطنبول 00905365958671 (الكاتـب : عاشقة السفر - )           »          كورغلو كوي تيسيسي |بيت عطلات طرابزون 00905365958671 (الكاتـب : عاشقة السفر - )           »          استئجار سيارة مع سائق في انطاليا 2019 (الكاتـب : زان تركيا - )           »          استئجار سيارة مع سائق في تركيا (الكاتـب : زان تركيا - )           »          استئجار سيارة مع سائق في انطاليا تركيا (الكاتـب : زان تركيا - )           »          استئجار سيارة مع سائق في انطاليا (الكاتـب : زان تركيا - )           »          عروض وتنزيلات حتى 70% (الكاتـب : رمش إلغلا - )           »          ارخص اسعار ايجار سيارة في مطار اتاتورك (الكاتـب : ام مهران - )

إضافة رد
 
LinkBack أدوات الموضوع انواع عرض الموضوع
  #1  
قديم 2018-10-14, 09:53 PM
الصورة الرمزية nemr23
 
تاريخ التسجيل: Feb 2016
المشاركات: 63

اوسمتي

nemr23 is on a distinguished road
افتراضي .Hotel.Transylvania.3 مدبلج حصريا تحميل ومشاهدة














حصريا فيلم الأنمى المنتظر

Hotel.Transylvania.3.1080p.WEB
(فندق ترنسلفانيا : رحلة متوحشة)








نسخة مدبلجة .1080p.WEB- بمساحة 2.32 جيجا


General
Complete name : Hotel.Transylvania.3.1080p.WEB-by.nemr23.mp4
Format : MPEG-4
Format profile : Base Media
Codec ID : isom (isom/iso2/avc1/mp41)
File size : 2.33 GiB
Duration : 1 h 37 min
Overall bit rate mode : Variable
Overall bit rate : 3 419 kb/s
Encoded date : UTC 1970-01-01 00:00:00
Tagged date : UTC 1970-01-01 00:00:00
Writing application : Lavf52.84.0

Video
ID : 1
Format : AVC
Format/Info : Advanced Video Codec
Format profile : High@L5
Format settings : CABAC / 5 Ref Frames
Format settings, CABAC : Yes
Format settings, ReFrames : 5 frames
Format settings, GOP : M=4, N=13
Codec ID : avc1
Codec ID/Info : Advanced Video Coding
Duration : 1 h 37 min
Bit rate : 3 350 kb/s


Width : 1 920 pixels
Height : 1 032 pixels
Display aspect ratio : 1.85:1
Frame rate mode : Constant
Frame rate : 24.000 FPS
Color space : YUV
Chroma subsampling : 4:2:0
Bit depth : 8 bits
Scan type : Progressive
Bits/(Pixel*Frame) : 0.070
Stream size : 2.24 GiB (96%)
Writing library : x264 core 110
Encoding settings : cabac=1 / ref=5 / deblock=1:0:0 / analyse=0x3:0x133 / me=hex / subme=8 / psy=1 / psy_rd=1.00:0.00 / mixed_ref=1 / me_range=16 / chroma_me=0 / trellis=1 / 8x8dct=1 / cqm=0 / deadzone=21,11 / fast_pskip=1 / chroma_qp_offset=-2 / threads=8 / sliced_threads=0 / nr=0 / decimate=1 / interlaced=0 / constrained_intra=0 / bframes=3 / b_pyramid=0 / b_adapt=0 / b_bias=0 / direct=3 / weightb=1 / open_gop=0 / weightp=0 / keyint=13 / keyint_min=7 / scenecut=0 / intra_refresh=0 / rc_lookahead=13 / rc=abr / mbtree=1 / bitrate=3350 / ratetol=1.0 / qcomp=0.00 / qpmin=10 / qpmax=51 / qpstep=4 / ip_ratio=1.41 / aq=1:1.00
Encoded date : UTC 1970-01-01 00:00:00
Tagged date : UTC 1970-01-01 00:00:00
Codec configuration box : avcC

Audio
ID : 2
Format : AAC
Format/Info : Advanced Audio Codec
Format profile : LC
Codec ID : mp4a-40-2
Duration : 1 h 37 min
Bit rate mode : Variable
Bit rate : 128 kb/s
Channel(s) : 2 channels
Channel positions : Front: L R
Sampling rate : 48.0 kHz
Frame rate : 46.875 FPS (1024 SPF)
Compression mode : Lossy
Stream size : 89.3 MiB (4%)
Encoded date : UTC 1970-01-01 00:00:00
Tagged date : UTC 1970-01-01 00:00:00







رد مع اقتباس

  #2  
قديم 2018-10-14, 10:07 PM
الصورة الرمزية hassan_ayman22
 
تاريخ التسجيل: Nov 2015
المشاركات: 87
hassan_ayman22 is on a distinguished road
افتراضي رد: .Hotel.Transylvania.3 مدبلج حصريا تحميل ومشاهدة

الله ينور عليگ بجد يامدير..
تسلم الأيادى وجارى التحميل
__________________


,,,,



رد مع اقتباس
  #3  
قديم 2018-11-11, 10:43 PM
عضو جديد
 
تاريخ التسجيل: Jun 2017
المشاركات: 3
mhmd2020 is on a distinguished road
افتراضي رد: .Hotel.Transylvania.3 مدبلج حصريا تحميل ومشاهدة

تسلم ايديك يا غالي
رد مع اقتباس
إضافة رد

« - | - »

تصميم مواقع

أدوات الموضوع
انواع عرض الموضوع

تعليمات المشاركة
لا تستطيع إضافة مواضيع جديدة
لا تستطيع الرد على المواضيع
لا تستطيع إرفاق ملفات
لا تستطيع تعديل مشاركاتك

BB code is متاحة
كود [IMG] متاحة
كود HTML معطلة
Trackbacks are متاحة
Pingbacks are متاحة
Refbacks are متاحة