عرض مشاركة واحدة
 
قديم 2019-01-05, 02:38 AM
الصورة الرمزية nemr23
nemr23 nemr23 غير متواجد حالياً
 
تاريخ التسجيل: Feb 2016
المشاركات: 64

اوسمتي

nemr23 is on a distinguished road
افتراضي Thugs of Hindostan.2018 مترجم 1080p أكشن ومغامرات أميتاب وعامر خان







فيلم الأكشن والمغامرات المنتظر

Thugs of Hindostan.2018
(قطاع الطرق الهنود)


بطولة
الأسطورة أميتاب
العبقرى عامر خان
فاطمة سنا شيخ
كاترينا كيف


نسخة مترجمة 1080p بمساحة 4.15 جيجا

معلومات عن الفيلم
أول فيلم يجمع بين اهم نجمين فى بوليود أميتاب وعامر خان
الفيلم صاحب أكبر ميزانية أنتاج فى بوليود 300 كرور
الفيلم أعاد أميتاب للأكشن بعد توقف سنوات
الفيلم حقق اكبر افتتاحية فى تاريخ بوليود 50 كرور
الغريب انه فشل فى الهند ولم يحقق سوى 145 كرور فقط


[video=https://




General
Thugs of Hindostan.2018..1080p.by.nemr23.mp4
Format : MPEG-4
Format profile : Base Media
Codec ID : isom (isom/iso2/avc1/mp41)
File size : 4.16 GiB
Duration : 2 h 44 min
Overall bit rate mode : Variable
Overall bit rate : 3 627 kb/s
Encoded date : UTC 1970-01-01 00:00:00
Tagged date : UTC 1970-01-01 00:00:00
Writing application : Lavf52.84.0

Video
ID : 1
Format : AVC
Format/Info : Advanced Video Codec
Format profile : High@L5
Format settings : CABAC / 5 Ref Frames
Format settings, CABAC : Yes
Format settings, ReFrames : 5 frames
Format settings, GOP : M=4, N=13
Codec ID : avc1
Codec ID/Info : Advanced Video Coding
Duration : 2 h 44 min
Bit rate : 3 453 kb/s
Width : 1 920 pixels
Height : 1 080 pixels
Display aspect ratio : 16:9
Frame rate mode : Constant
Frame rate : 24.000 FPS
Color space : YUV
Chroma subsampling : 40
Bit depth : 8 bits
Scan type : Progressive
Bits/(Pixel*Frame) : 0.069
Stream size : 3.96 GiB (95%)
Writing library : x264 core 110
Encoding settings : cabac=1 / ref=5 / deblock=1:0:0 / analyse=0x3:0x133 / me=hex / subme=8 / psy=1 / psy_rd=1.00:0.00 / mixed_ref=1 / me_range=16 / chroma_me=0 / trellis=1 / 8x8dct=1 / cqm=0 / deadzone=21,11 / fast_pskip=1 / chroma_qp_offset=-2 / threads=8 / sliced_threads=0 / nr=0 / decimate=1 / interlaced=0 / constrained_intra=0 / bframes=3 / b_pyramid=0 / b_adapt=0 / b_bias=0 / direct=3 / weightb=1 / open_gop=0 / weightp=0 / keyint=13 / keyint_min=7 / scenecut=0 / intra_refresh=0 / rc_lookahead=13 / rc=abr / mbtree=1 / bitrate=3453 / ratetol=1.0 / qcomp=0.00 / qpmin=10 / qpmax=51 / qpstep=4 / ip_ratio=1.41 / aq=1:1.00
Encoded date : UTC 1970-01-01 00:00:00
Tagged date : UTC 1970-01-01 00:00:00
Codec configuration box : avcC

Audio
ID : 2
Format : AAC
Format/Info : Advanced Audio Codec
Format profile : LC
Codec ID : mp4a-40-2
Duration : 2 h 44 min
Bit rate mode : Variable
Bit rate : 165 kb/s
Channel(s) : 2 channels
Channel positions : Front: L R
Sampling rate : 48.0 kHz
Frame rate : 46.875 FPS (1024 SPF)
Compression mode : Lossy
Stream size : 194 MiB (5%)
Encoded date : UTC 1970-01-01 00:00:00
Tagged date : UTC 1970-01-01 00:00:00









رابط التحميل بجودة 1080p

http://up-4.net/d/8R6k


رابط التحميل بجودة 720p

http://up-4.net/d/8R6z


رابط المشاهدة
https://ok.ru/video/957640018525
او
https://uptostream.com/x64roxvuaqdw

رابط تورنت والف شكر لتراكر arabp2p
http://up-4.net/d/8RGb
رد مع اقتباس