إختر لونك :
Facebook Twitter Google Plus Rss
منتديات الديفيدى العربى أعلن معنا
العودة   منتديات الديفيدى العربى > منتديات الديفيدى الفنية > ملتقى عشاق السينما الهندية (بوليود )
آخر 10 مشاركات مشروع شموس أختيارك الأول للسكن (الكاتـب : بنت الرياااض - )           »          TBProAudio Plugins Bundle 2018.11 WiN (الكاتـب : mitsumi - )           »          Snippetty 1.6 macOS (الكاتـب : mitsumi - )           »          Scientific Toolworks Understand 5.0.970 (Win/Mac) (الكاتـب : mitsumi - )           »          RapidWeaver 8 v8.1b10 macOS (الكاتـب : mitsumi - )           »          Infographics Templates for PPT 1.2.2 macOS (الكاتـب : mitsumi - )           »          Infographics Maker - Templates 3.3.1 macOS (الكاتـب : mitsumi - )           »          Infographics Lab - Templates 3.4.2 macOS (الكاتـب : mitsumi - )           »          DtSearch Desktop Engine 7.92.8572 (الكاتـب : mitsumi - )           »          Currencier 2.4 macOS (الكاتـب : mitsumi - )

إضافة رد
 
LinkBack أدوات الموضوع انواع عرض الموضوع
  #1  
قديم 2018-10-19, 02:36 AM
الصورة الرمزية nemr23
 
تاريخ التسجيل: Feb 2016
المشاركات: 63

اوسمتي

nemr23 is on a distinguished road
افتراضي [Cheeni Kum [2007][1080p - مترجم أميتاب وتابو تحميل ومشاهدة







الفيلم الرومانسى الكوميدى

Cheeni Kum.2007

بطولة
الأسطورة أميتاب
تابو


نسخة مسجلة من mbc بوليود بصيغة mp4 بمساحة 1.17 جيجا




General
Complete name : Cheeni Kum.2007.by.nemr23.mp4
Format : MPEG-4
Format profile : Base Media
Codec ID : isom (isom/iso2/mp41)
File size : 1.18 GiB
Duration : 2 h 12 min
Overall bit rate : 1 274 kb/s
Writing application : Lavf56.15.100

Video
ID : 1
Format : HEVC
Format/Info : High Efficiency Video Coding
Format profile : Main@L4@Main
Codec ID : hev1
Codec ID/Info : High Efficiency Video Coding
Duration : 2 h 12 min
Bit rate : 949 kb/s
Width : 1 920 pixels
Height : 1 080 pixels
Display aspect ratio : 16:9
Frame rate mode : Constant
Frame rate : 25.000 FPS
Color space : YUV


Chroma subsampling : 40
Bit depth : 8 bits
Scan type : Progressive
Bits/(Pixel*Frame) : 0.018
Stream size : 900 MiB (74%)
Writing library : x265 1.4:[Windows][GCC 4.9.2][32 bit]
Encoding settings : wpp / ctu=32 / tu-intra-depth=1 / tu-inter-depth=1 / me=0 / subme=0 / merange=25 / no-rect / no-amp / max-merge=2 / temporal-mvp / early-skip / no-fast-cbf / rdpenalty=0 / no-tskip / no-tskip-fast / strong-intra-smoothing / no-lossless / no-cu-lossless / no-constrained-intra / fast-intra / open-gop / interlace=0 / keyint=250 / min-keyint=25 / scenecut=0 / rc-lookahead=10 / bframes=4 / bframe-bias=0 / b-adapt=0 / ref=1 / no-weightp / no-weightb / aq-mode=0 / aq-strength=0.00 / cbqpoffs=0 / crqpoffs=0 / rd=2 / psy-rd=0.00 / psy-rdoq=0.00 / no-signhide / no-lft / no-sao / no-sao-non-deblock / b-pyramid / no-cutree / rc=crf / crf=28.0 / qcomp=0.60 / qpmin=0 / qpmax=51 / qpstep=4 / ipratio=1.40 / pbratio=1.30
Codec configuration box : hvcC

Audio
ID : 2
Format : AAC
Format/Info : Advanced Audio Codec
Format profile : LC
Codec ID : mp4a-40-2
Duration : 2 h 12 min
Duration_LastFrame : -15 ms
Bit rate mode : Constant
Bit rate : 319 kb/s
Channel(s) : 2 channels
Channel positions : Front: L R
Sampling rate : 44.1 kHz
Frame rate : 43.066 FPS (1024 SPF)
Compression mode : Lossy
Stream size : 303 MiB (25%)
Language : English
Default : Yes
Alternate group : 1









التعديل الأخير تم بواسطة nemr23 ; 2018-10-19 الساعة 02:38 AM
رد مع اقتباس

إضافة رد

تصميم مواقع

أدوات الموضوع
انواع عرض الموضوع

تعليمات المشاركة
لا تستطيع إضافة مواضيع جديدة
لا تستطيع الرد على المواضيع
لا تستطيع إرفاق ملفات
لا تستطيع تعديل مشاركاتك

BB code is متاحة
كود [IMG] متاحة
كود HTML معطلة
Trackbacks are متاحة
Pingbacks are متاحة
Refbacks are متاحة