عرض مشاركة واحدة
 
قديم 2019-02-26, 04:52 PM
oaxino oaxino غير متواجد حالياً
عضو ذهبي
 
تاريخ التسجيل: Sep 2017
المشاركات: 1,754
oaxino is on a distinguished road
افتراضي The Ellen DeGeneres Show S16E104



The Ellen DeGeneres Show S16E104
HDTV | MKV | 1280x718 | English | H264 @ 3464 kbps | AC-3 @ 384 kbps | 41 min 28 s | 1.12 GiB
Subtitles: English
Genre: Comedy
The Ellen DeGeneres Show, often shortened to Ellen, is an American television talk show hosted by comedian/actress Ellen DeGeneres.

General
Unique ID : 38104674738887646542144355534215975113 (0x1CAAB183529EF69D5AEAE25E46C610C9)
Complete name : ./b59974a89e0341bdbda6744196918743.mkv
Format : Matroska
Format version : Version 4 / Version 2
File size : 1.12 GiB
Duration : 41 min 28 s
Overall bit rate : 3 852 kb/s
Encoded date : UTC 2019-02-20 02:18:14
Writing application : mkvmerge v22.0.0 ('At The End Of The World') 64-bit
Writing library : libebml v1.3.5 + libmatroska v1.4.8 / Lavf58.22.100

Video
ID : 1
Format : AVC
Format/Info : Advanced Video Codec
Format profile : High@L4.1
Format settings : CABAC / 9 Ref Frames
Format settings, CABAC : Yes
Format settings, RefFrames : 9 frames
Codec ID : V_MPEG4/ISO/AVC
Duration : 41 min 28 s
Bit rate : 3 464 kb/s
Width : 1 280 pixels
Height : 718 pixels
Display aspect ratio : 16:9
Frame rate mode : Constant
Frame rate : 59.940 (60000/1001) FPS
Color space : YUV
Chroma subsampling : 4:2:0
Bit depth : 8 bits
Scan type : Progressive
Bits/(Pixel*Frame) : 0.063
Stream size : 1.00 GiB (90%)
Writing library : x264 core 157 r2935 545de2f
Encoding settings : cabac=1 / ref=9 / deblock=1:-3:-3 / analyse=0x3:0x133 / me=umh / subme=10 / psy=1 / psy_rd=1.00:0.00 / mixed_ref=1 / me_range=36 / chroma_me=1 / trellis=2 / 8x8dct=1 / cqm=0 / deadzone=21,11 / fast_pskip=0 / chroma_qp_offset=-2 / threads=22 / lookahead_threads=2 / sliced_threads=0 / nr=0 / decimate=1 / interlaced=0 / bluray_compat=0 / constrained_intra=0 / bframes=5 / b_pyramid=2 / b_adapt=2 / b_bias=0 / direct=3 / weightb=1 / open_gop=0 / weightp=2 / keyint=250 / keyint_min=25 / scenecut=40 / intra_refresh=0 / rc_lookahead=60 / rc=crf / mbtree=1 / crf=18.0 / qcomp=0.60 / qpmin=0 / qpmax=69 / qpstep=4 / ip_ratio=1.40 / aq=1:1.00
Default : Yes
Forced : No

Audio
ID : 2
Format : AC-3
Format/Info : Audio Coding 3
Format settings, Endianness : Big
Codec ID : A_AC3
Duration : 41 min 28 s
Bit rate mode : Constant
Bit rate : 384 kb/s
Channel(s) : 6 channels
Channel positions : Front: L C R, Side: L R, LFE
Sampling rate : 48.0 kHz
Frame rate : 31.250 FPS (1536 SPF)
Bit depth : 16 bits
Compression mode : Lossy
Delay relative to video : 18 ms
Stream size : 114 MiB (10%)
Language : English
Service kind : Complete Main
Default : Yes
Forced : No

Text
ID : 3
Format : UTF-8
Codec ID : S_TEXT/UTF8
Codec ID/Info : UTF-8 Plain Text
Duration : 40 min 45 s
Bit rate : 86 b/s
Count of elements : 380
Stream size : 25.8 KiB (0%)
Language : English
Default : No
Forced : No





Download link:
كود:
rapidgator_net: https://rapidgator.net/file/ddd9c5939efca99f40c54a1e2d3f736e/z3c3d.The.Ellen.DeGeneres.Show.S16E104.mkv.html nitroflare_com: http://nitroflare.com/view/E3EE28210344695/z3c3d.The.Ellen.DeGeneres.Show.S16E104.mkv
Links are Interchangeable - No Password - Single Extraction
رد مع اقتباس