الاستماع للقران الكريم          مركز رفع الصور         صفحتنا علي الفيس بوك

عروض بنده     عروض العثيم         منتجات dxn

تنبية مهم لكل عضو قبل طرح المواضيع :: لتفادي إيقاف العضوية وحذف جميع المواضيع نأمل من كل عضو طرح مواضيعه في القسم المخصص لها وإلا سوف يتم حذف جميع مواضيعه وحظر عضويته فـوراً ..


آخر 10 مشاركات Autodesk VRED Design 2018.4 (x64) (الكاتـب : heshamsheva - )           »          Autodesk ArtCAM Premium 2018 (x64) (الكاتـب : heshamsheva - )           »          East Imperial Soft Magic Partition Recovery 2.7... (الكاتـب : lasavn - )           »          Symantec Encryption Desktop Professional 10.4.1 MP2... (الكاتـب : lasavn - )           »          IPTV playlist big mix (الكاتـب : ashraf33445566 - )           »          Ample Sound ABP2 v2.6.0 WiN (الكاتـب : lasavn - )           »          East Imperial Soft Magic Photo Recovery 4.6 Multilingual... (الكاتـب : lasavn - )           »          East Imperial Soft Magic NTFS & FAT Recovery 2.7... (الكاتـب : lasavn - )           »          WinToUSB Enterprise 3.7 Release 1 Multilingual Portable (الكاتـب : lasavn - )           »          East Imperial Soft Magic Uneraser v4.0 Multilingual Portable (الكاتـب : lasavn - )

إضافة رد
 
LinkBack أدوات الموضوع انواع عرض الموضوع
  #1  
قديم 2017-12-04, 09:19 PM
الصورة الرمزية nemr23
 
تاريخ التسجيل: Feb 2016
المشاركات: 68

اوسمتي

nemr23 is on a distinguished road
افتراضي Mr India 1987 مترجم 1080p BluRay أنيل كابور وسريديفى تحميل ومشاهدة







فيلم الأكشن الخيالى

Mr India 1987
(أستاذ الهند)


بطولة
أنيل كابور
سريديفى
أمريش بورى

ألف شكر للمترجم الكبير
شريف وهبة

قصة الفيلم
فى أطار خيالى تدور الأحداث حول موجيمبو (أمريش بورى) زعيم منظمة أرهابية تسعى للسيطرة
على الهند بنشر تجارة المخدرات والسلاح فى البلاد ويتصدى له أرون (أنيل كابور) بواسطة
تركيبة علمية أختراعها والده العالم الشهير والتى تؤدى لأختفاء من يستخدمها
ويسمى نفسه أستاذ الهند حتى يتمكن من تحطيم المنظمة دون أن يعرف أحد شخصيته الحقيقية


نسخة مترجمة 1080p BluRay بمساحة 4.58 جيجا







General
Mr India 1987 - 1080p BluRay x264 DTS-HDMA.by.nemt23.mp4
Format : MPEG-4
Format profile : Base Media
Codec ID : isom
File size : 4.58 GiB
Duration : 2h 58mn
Overall bit rate mode : Variable
Overall bit rate : 3 670 Kbps
Writing application : Lavf52.84.0

Video
ID : 1
Format : MPEG-4 Visual
Format profile : Simple@L3
Format settings, BVOP : No
Format settings, QPel : No
Format settings, GMC : No warppoints
Format settings, Matrix : Default (H.263)
Codec ID : 20
Duration : 2h 58mn
Bit rate : 3 502 Kbps


Width : 1 920 pixels
Height : 816 pixels
Display aspect ratio : 2.35:1
Frame rate mode : Constant
Frame rate : 24.000 fps
Color space : YUV
Chroma subsampling : 40
Bit depth : 8 bits
Scan type : Progressive
Compression mode : Lossy
Bits/(Pixel*Frame) : 0.093
Stream size : 4.37 GiB (95%)
Writing library : ZJMedia MPEG Encoder

Audio
ID : 2
Format : AAC
Format/Info : Advanced Audio Codec
Format profile : LC
Codec ID : 40
Duration : 2h 58mn
Bit rate mode : Variable
Bit rate : 159 Kbps
Channel count : 2 channels
Channel positions : Front: L R
Sampling rate : 48.0 KHz
Compression mode : Lossy
Stream size : 204 MiB (4%)









http://getsl.me/88fE
او
http://getsl.me/88fV


رابط المشاهدة
http://getsl.me/88g2
او

https://goo.gl/sGKKfS






التعديل الأخير تم بواسطة nemr23 ; 2017-12-04 الساعة 09:23 PM
رد مع اقتباس

إضافة رد

أدوات الموضوع
انواع عرض الموضوع

تعليمات المشاركة
لا تستطيع إضافة مواضيع جديدة
لا تستطيع الرد على المواضيع
لا تستطيع إرفاق ملفات
لا تستطيع تعديل مشاركاتك

BB code is متاحة
كود [IMG] متاحة
كود HTML معطلة
Trackbacks are متاحة
Pingbacks are متاحة
Refbacks are متاحة


|

اعلانك يراه الكثير ... بأرخص الأسعار

Powered by vBulletin® Copyright ©2000 - 2017, Jelsoft Enterprises Ltd.
SEO by vBSEO 3.6.0 PL2 TranZ By Almuhajir