الاستماع للقران الكريم          مركز رفع الصور         صفحتنا علي الفيس بوك

عروض بنده     عروض العثيم         منتجات dxn

تنبية مهم لكل عضو قبل طرح المواضيع :: لتفادي إيقاف العضوية وحذف جميع المواضيع نأمل من كل عضو طرح مواضيعه في القسم المخصص لها وإلا سوف يتم حذف جميع مواضيعه وحظر عضويته فـوراً ..


آخر 10 مشاركات SUPER IPTV m3u channels ALL CHANNEL WORLD (الكاتـب : ashraf33445566 - )           »          سيرفرات سيســكام شغــالة لجميـــع البـاقات (الكاتـب : ashraf33445566 - )           »          IPTV m3u Adult XXX 18+ Playlist 25-11-2017 Working (الكاتـب : Master - )           »          ملف IPTV قنوات Prima . Bein . Canal . Sky . Fox و3000قنوات... (الكاتـب : magicdali - )           »          اقوى ملف iptv متجدد يوميا لكل الباقات العالمية 25-11-2017 (الكاتـب : magicdali - )           »          ملف iptv حصرى لباقة bein sports بالجودة hd و sd ليوم ... (الكاتـب : magicdali - )           »          ملفM3Uشامل قنوات Bein ,Nile,OSN يعمل لمدة طويلة 25.11.2017 (الكاتـب : magicdali - )           »          سيرفر سيسكام مجانى شغال ومجرب 100% 25/11/2017 (الكاتـب : magicdali - )           »          سيرفر سيسكام مجانى قوى لمشاهدة المباريات 25/11/2017 (الكاتـب : magicdali - )           »          اقوى سطر سيسكام مميز وشغال لنهار اليوم 25/11/2017 (الكاتـب : magicdali - )

إضافة رد
 
LinkBack أدوات الموضوع انواع عرض الموضوع
  #1  
قديم 2017-05-03, 05:19 AM
الصورة الرمزية nemr23
 
تاريخ التسجيل: Feb 2016
المشاركات: 65

اوسمتي

nemr23 is on a distinguished road
افتراضي Sholay 1975 مترجم نسخة حصرية تم تحويلها لعالية النقاء3d








رائعة السينما الهندية الأشهر

Sholay.1975


بطولة
الأسطورة أميتاب & العملاق دارمندرا
سانجيف كومار
العملاق أمجد خان
هيما مالينى
جايا بتشان



نسخة حصرية مأخوذة من النسخة 3d بمساحة 3.1 جيجا
هذه النسخة الصادرة شهر 09/2016 الأخيرة من حيث التعديل على الصورة والصوت، كلياً وهي نسخة 2D من 3D حيث عمل 350 تقني على الريماستر الخاص بالفيلم لإخراجه بهذه الحلّة وهو عدد هائل بمبلغ يقارب الأربع ملايين دولار.

كل الشكر لمالك الخام الاصلى ومترجم النسخة

أخى الغالى أبو أدم
lalmeed

الفيلم صاحب أعلى الأيردات فى البوكس أوفيس الهندى لأكثر من 30 عام
عرض فى مصر بأسم الشعلة والجبابرة بنجاح كبير جدا
وهو الفيلم الأول لأفضل ثنائى فى بوليوود أميتاب ودارمندر












General
Sholay 1975.by.nemr23.mp4
Format : MPEG-4
Format profile : Base Media
Codec ID : isom
File size : 3.14 GiB
Duration : 3h 13mn
Overall bit rate mode : Variable
Overall bit rate : 2 329 Kbps
Writing application : Lavf52.84.0

Video
ID : 1


Format : MPEG-4 Visual
Format profile : Simple@L3
Format settings, BVOP : No
Format settings, QPel : No
Format settings, GMC : No warppoints
Format settings, Matrix : Default (H.263)
Codec ID : 20
Duration : 3h 13mn
Bit rate : 2 199 Kbps
Width : 864 pixels
Height : 480 pixels
Display aspect ratio : 16:9
Frame rate mode : Constant
Frame rate : 25.000 fps
Color space : YUV
Chroma subsampling : 40
Bit depth : 8 bits
Scan type : Progressive
Compression mode : Lossy
Bits/(Pixel*Frame) : 0.212
Stream size : 2.97 GiB (94%)
Writing library : ZJMedia MPEG Encoder

Audio
ID : 2
Format : AAC
Format/Info : Advanced Audio Codec
Format profile : LC
Codec ID : 40
Duration : 3h 13mn
Bit rate mode : Variable
Bit rate : 125 Kbps
Channel count : 2 channels
Channel positions : Front: L R
Sampling rate : 48.0 KHz
Compression mode : Lossy
Stream size : 173 MiB (5%)










https://www.file-upload.com/6jfdz8o9pxwd

رابط المشاهدة

https://ok.ru/video/267429153373



التعديل الأخير تم بواسطة nemr23 ; 2017-10-04 الساعة 12:57 AM
رد مع اقتباس

  #2  
قديم 2017-05-07, 02:32 PM
الصورة الرمزية KHALED_RAMADAN
 
تاريخ التسجيل: Mar 2016
المشاركات: 1,044

اوسمتي

KHALED_RAMADAN is on a distinguished road
إرسال رسالة عبر MSN إلى KHALED_RAMADAN إرسال رسالة عبر Yahoo إلى KHALED_RAMADAN إرسال رسالة عبر Skype إلى KHALED_RAMADAN
افتراضي رد: Sholay 1975 مترجم نسخة حصرية تم تحويلها لعالية النقاء3d

الف شكر على المجهود المميز
تحياتى

__________________
280تيرا متنوع للتبادل والبيع خارج المنافسة
اخر تحديث اللستة من هنا بتاريخ 17- 7- 2017
http://up.dev-point.com/download309298.html
كن صادقا يحترمك الناس
يهمنا الاحترام ودقة المواعيد
الشحن لجميع دول العالم
Kh_nana15555@hotmail.com
Kh_nana1555@yahoo.com
https://www.facebook.com/khaled.ramadan.10236
00201225575997
رد مع اقتباس
  #3  
قديم 2017-05-10, 06:53 PM
الصورة الرمزية MR D I A A
 
تاريخ التسجيل: Dec 2014
المشاركات: 315

اوسمتي

MR D I A A تم تعطيل التقييم
افتراضي رد: Sholay 1975 مترجم نسخة حصرية تم تحويلها لعالية النقاء3d

شكرا علي المجهود الكبير
تقبل تحياتي

__________________



رد مع اقتباس
  #4  
قديم 2017-10-13, 02:48 AM
الصورة الرمزية deyamag
عضو نشيط
 
تاريخ التسجيل: Oct 2017
الدولة: الدقي - جيزة - مصر
المشاركات: 180
deyamag is on a distinguished road
افتراضي رد: Sholay 1975 مترجم نسخة حصرية تم تحويلها لعالية النقاء3d

تسلم إيديك - شكرا لك -

رد مع اقتباس
  #5  
قديم 2017-10-20, 05:32 PM
عضو برونزي
 
تاريخ التسجيل: Jan 2017
المشاركات: 3,709

اوسمتي

maha is on a distinguished road
افتراضي رد: Sholay 1975 مترجم نسخة حصرية تم تحويلها لعالية النقاء3d

شكرا لاختيارك وبانتظار جديدك 

رد مع اقتباس
إضافة رد

أدوات الموضوع
انواع عرض الموضوع

تعليمات المشاركة
لا تستطيع إضافة مواضيع جديدة
لا تستطيع الرد على المواضيع
لا تستطيع إرفاق ملفات
لا تستطيع تعديل مشاركاتك

BB code is متاحة
كود [IMG] متاحة
كود HTML معطلة
Trackbacks are متاحة
Pingbacks are متاحة
Refbacks are متاحة


|

اعلانك يراه الكثير ... بأرخص الأسعار
مركزي لتفسير الاحلام

Powered by vBulletin® Copyright ©2000 - 2017, Jelsoft Enterprises Ltd.
SEO by vBSEO 3.6.0 PL2 TranZ By Almuhajir